#TITLE:Super Star;
#SUBTITLE:;
#ARTIST:超新星;
#TITLETRANSLIT:;
#SUBTITLETRANSLIT:;
#ARTISTTRANSLIT:;
#CREDIT:;
#BANNER:Super Star_logo.jpg;
#BACKGROUND:Super Star_bg.jpg;
#LYRICSPATH:;
#CDTITLE:Lan.png;
#MUSIC:Super Star.mp3;
#OFFSET:-0.020;
#SAMPLESTART:100.000;
#SAMPLELENGTH:12.000;
#SELECTABLE:YES;
#BPMS:0.000=128.010;
#STOPS:;
#BGCHANGES:;
// cache tags:
#FIRSTBEAT:4.000;
#LASTBEAT:320.000;
#SONGFILENAME:Songs/lan sky/Super Star/Super Star.sm;
#HASMUSIC:1;
#HASBANNER:1;
#MUSICLENGTH:150.874;
// end cache tags

//---------------dance-single - sky----------------
#NOTES:
     dance-single:
     sky:
     Hard:
     8:
     0.742,0.822,0.968,0.013,0.285,636.000,146.000,2.000,0.000,0.000:

0000
0000
0000
0000
,
1000
0000
0100
0000
0010
0000
0001
0000
0000
0000
1000
0000
0100
0010
0100
0000
,
0010
0000
1000
0000
0100
0000
0010
0000
0000
1000
1000
0000
0010
0010
0001
0000
,
0001
0000
0010
0000
0100
0000
1000
0000
0000
0000
0100
0000
0010
0001
0010
0000
,
1000
0000
0100
0000
0010
0000
0001
0000
0000
0000
1000
0000
0100
0010
0100
0000
,
0011
1000
0101
0010
1100
0010
0101
0010
,
1100
0100
1010
0001
0110
1000
0101
0010
,
1100
0001
0101
0010
1100
0010
0101
1000
,
0110
0001
1010
0100
1100
0001
1010
0100
,
1100
0001
0101
0010
1100
1000
0110
1000
,
0101
0010
1001
0010
1100
0010
0101
1000
,
0110
0001
1010
1000
0101
0001
0110
1000
,
0011
0000
0100
0000
0101
0000
1000
0000
0100
0100
0010
0100
0100
0010
0100
0100
,
1010
0110
0011
1010
,
0100
0010
1000
0010
0100
0001
0010
1000
,
0101
0110
1010
0011
,
0010
0100
1000
0010
0100
0001
0010
1000
,
0011
1001
0110
1100
,
0010
1000
0010
0100
1000
0010
0100
0001
,
1100
0110
0011
1010
,
1000
0000
0010
0000
0100
0000
0001
0000
0100
0100
0010
0000
0100
0100
0010
0000
,
0000
0000
1000
0000
0100
0000
0010
0000
0000
0000
0001
0000
1000
0100
1000
0000
,
0010
0000
0000
0000
0010
0000
0000
0000
0010
0010
0000
0000
0010
0010
0010
0000
,
1000
0100
0010
0000
0010
0001
0010
0000
1000
0100
0010
0000
0010
0000
0001
0000
,
0010
0100
1000
0000
0010
0100
0010
0000
0000
0000
1000
0100
0010
0000
0100
0000
,
0010
0100
1000
0000
0010
0100
0010
0001
0010
0100
0010
0100
1000
0100
0010
0100
,
0001
0010
0100
0010
1000
0100
1000
0100
0010
0100
0001
0010
0100
1000
0100
0000
,
0011
0000
0011
0000
0011
0000
0011
0000
0100
0010
1000
0100
0010
0000
0010
0000
,
1100
0000
1100
0000
1100
0000
1100
0000
0001
0010
0001
0010
0100
0000
0100
0000
,
0000
0000
1000
0100
0010
0100
1000
0000
1000
0100
0001
0010
1000
0100
0010
0001
,
0010
0000
0100
0000
1000
0000
0100
0010
0100
0010
0001
0010
0100
1000
0010
0000
,
0100
1000
0010
0100
0001
0010
1000
0010
,
0100
0001
1000
0100
0010
1000
0010
0100
,
0001
0100
0010
1000
0010
0100
0001
0010
,
1000
0100
0001
0010
1000
0010
0100
0001
,
0100
0010
1000
0010
0100
0001
0010
0100
,
1000
0010
0100
0001
0010
1000
0010
0100
,
0001
0010
1000
0010
0100
0001
0010
1000
,
0100
0001
0100
0010
1000
0010
0100
0001
,
1100
0010
0101
0010
0110
1000
0101
1000
,
0110
0001
1100
0100
0011
0100
1001
0010
,
0101
1000
0110
0001
1010
0100
1100
0010
,
0110
0000
1000
0000
1010
0000
0100
0000
0010
0010
0001
0000
0010
0010
0001
0000
,
1010
0100
1100
0010
0110
0001
0101
1000
,
0110
0001
1010
0100
1100
0010
0110
0010
,
1001
0010
1100
0010
0101
1000
0110
0001
,
0011
0000
1000
0000
0110
0000
1000
0000
0010
0010
0010
0100
0100
0100
1000
1000
,
1010
0110
1001
0110
,
0001
0010
1000
0010
0100
0001
0010
1000
,
0110
1001
1100
0011
,
0100
1000
0010
0100
0001
0010
1000
0010
,
0110
1100
0110
0101
,
1000
0010
0100
0001
0010
1000
0100
0001
,
1010
0101
0110
1100
,
0001
0100
0010
1000
0010
0100
0010
0001
,
0010
0000
0000
0100
0000
1000
1000
0000
0100
0000
0010
0000
0001
0000
0010
0000
,
0100
0000
0000
0010
0000
0000
1000
0000
0010
0000
0001
0000
0000
0000
0010
0100
,
1000
0000
0010
0010
0000
0001
0001
0000
1000
0100
0010
0000
1000
0000
0100
0000
,
0010
0000
1000
1000
0000
0001
0001
0000
0010
0000
0100
0000
0000
0010
0010
0000
,
0000
0000
0100
0100
0000
0010
0010
0000
0100
0000
1000
0000
0100
0000
0010
0000
,
0001
0000
0000
0100
0000
0000
1000
0000
0100
0000
0010
0000
0000
0000
0100
1000
,
0100
0000
0001
0001
0000
0010
0010
0000
0100
1000
0100
0000
0001
0000
0010
0000
,
1000
0000
0100
0100
0000
0010
0010
0000
1000
0000
0100
0000
0000
1000
1000
0000
,
0000
0000
0010
0010
0000
1000
1000
0000
0001
0010
0001
0010
0001
0010
0001
0010
,
0101
1000
0101
0010
1100
0010
0110
0001
,
1010
0100
1100
0001
0110
1000
0110
0001
,
1010
0100
1001
0010
1100
0010
0101
1010
,
0110
0000
0001
0000
0101
0000
0010
0000
1000
1000
0001
0000
1000
1000
0001
0000
,
0110
1000
0101
0001
0110
0010
1100
0001
,
1010
0100
0011
1000
0101
0010
1100
0001
,
1010
0100
1100
0001
0110
1000
0011
0100
,
1001
0000
0010
0000
1100
0000
0001
0000
0010
0010
0001
0100
0100
0010
1000
1000
,
1010
0110
0011
1100
,
0010
0100
0001
0010
1000
0010
0100
0001
,
0110
1100
0110
0011
,
0100
1000
0010
0100
0010
0001
0010
1000
,
0011
0110
1010
0101
,
0010
1000
0010
0100
0001
0010
1000
0010
,
0101
1100
0011
1001
,
0110
1100
0220
0000
,
0330
0000
0000
0000
;
